<?xml version="1.0" standalone="no"?>
<!DOCTYPE svg PUBLIC "-//W3C//DTD SVG 1.1//EN" "http://www.w3.org/Graphics/SVG/1.1/DTD/svg11.dtd" >
<svg xmlns="http://www.w3.org/2000/svg">
<metadata>Generated by IcoMoon</metadata>
<defs>
<font id="icomoon" horiz-adv-x="1024">
<font-face units-per-em="1024" ascent="960" descent="-64" />
<missing-glyph horiz-adv-x="1024" />
<glyph unicode="&#x20;" horiz-adv-x="512" d="" />
<glyph unicode="&#xe900;" glyph-name="arrow-down" horiz-adv-x="964" d="M481.882 44.424l-439.718 439.718 54.212 48.188 385.506-385.506 385.506 385.506 54.212-48.188zM445.741 851.576h72.282v-752.941h-72.282v752.941z" />
<glyph unicode="&#xe901;" glyph-name="arrow-down-bold" horiz-adv-x="964" d="M481.882 26.353l-415.624 421.647 72.282 72.282 343.341-349.365 343.341 349.365 72.282-72.282zM427.671 797.365h102.4v-692.706h-102.4v692.706z" />
<glyph unicode="&#xe902;" glyph-name="arrow-large-left" horiz-adv-x="964" d="M951.718 484.141h-795.106l156.612 156.612-54.212 54.212-246.965-246.965 246.965-246.965 54.212 54.212-156.612 156.612h795.106z" />
<glyph unicode="&#xe903;" glyph-name="arrow-large-right" horiz-adv-x="964" d="M12.047 411.859h795.106l-156.612-156.612 54.212-54.212 246.965 246.965-246.965 246.965-54.212-54.212 156.612-156.612h-795.106z" />
<glyph unicode="&#xe904;" glyph-name="arrow-left" horiz-adv-x="964" d="M78.306 448l439.718 439.718 48.188-54.212-385.506-385.506 385.506-385.506-48.188-54.212zM132.518 484.141h752.941v-72.282h-752.941v72.282z" />
<glyph unicode="&#xe905;" glyph-name="arrow-left-bold" horiz-adv-x="964" d="M96.376 411.859l421.647 415.624 72.282-72.282-349.365-343.341 349.365-343.341-72.282-72.282zM174.682 460.047h692.706v-102.4h-692.706v102.4z" />
<glyph unicode="&#xe906;" glyph-name="arrow-right" horiz-adv-x="964" d="M885.459 448l-439.718-439.718-48.188 54.212 385.506 385.506-385.506 385.506 48.188 54.212zM78.306 484.141h752.941v-72.282h-752.941v72.282z" />
<glyph unicode="&#xe907;" glyph-name="arrow-right-bold" horiz-adv-x="964" d="M867.388 411.859l-421.647-415.624-72.282 72.282 349.365 343.341-349.365 343.341 72.282 72.282zM96.376 460.047h692.706v-102.4h-692.706v102.4z" />
<glyph unicode="&#xe908;" glyph-name="arrow-up" horiz-adv-x="964" d="M481.882 851.576l439.718-439.718-54.212-48.188-385.506 385.506-385.506-385.506-54.212 48.188zM445.741 797.365h72.282v-752.941h-72.282v752.941z" />
<glyph unicode="&#xe909;" glyph-name="arrow-up-bold" horiz-adv-x="964" d="M481.882 797.365l415.624-421.647-72.282-72.282-343.341 349.365-343.341-349.365-72.282 72.282zM427.671 719.059h102.4v-692.706h-102.4v692.706z" />
<glyph unicode="&#xe90a;" glyph-name="asterisc" horiz-adv-x="964" d="M343.341 80.565l138.541 295.153 144.565-295.153 102.4 60.235-186.729 271.059 325.271-24.094v120.471l-325.271-30.118 186.729 271.059-102.4 66.259-144.565-295.153-138.541 295.153-108.424-66.259 186.729-271.059-325.271 30.118v-114.447l325.271 24.094-186.729-271.059 108.424-66.259z" />
<glyph unicode="&#xe90b;" glyph-name="bell" horiz-adv-x="964" d="M728.847 399.812c-18.071 18.071-24.094 42.165-24.094 72.282v66.259c0 96.376-60.235 180.706-150.588 210.824v24.094c0 24.094-24.094 48.188-48.188 48.188h-48.188c-24.094 0-48.188-24.094-48.188-48.188v-24.094c-84.329-30.118-150.588-108.424-150.588-210.824v-72.282c0-24.094-6.024-48.188-24.094-72.282l-54.212-60.235c-24.094-36.141 0-90.353 42.165-90.353h512c48.188 0 72.282 54.212 42.165 90.353l-48.188 66.259zM813.176 634.729c-18.071 72.282-66.259 138.541-126.494 180.706-12.047 12.047-36.141 6.024-42.165-6.024-12.047-12.047-6.024-36.141 6.024-42.165 48.188-36.141 84.329-90.353 102.4-150.588 6.024-12.047 18.071-24.094 30.118-24.094 6.024 0 6.024 0 6.024 0 24.094 6.024 30.118 24.094 24.094 42.165v0zM210.824 616.659c18.071 60.235 54.212 114.447 102.4 150.588 12.047 12.047 12.047 30.118 6.024 42.165-12.047 18.071-30.118 18.071-48.188 6.024-60.235-48.188-102.4-108.424-126.494-180.706 0-18.071 6.024-36.141 24.094-42.165 6.024 0 6.024 0 6.024 0 18.071 0 30.118 12.047 36.141 24.094v0zM481.882 74.541c60.235 0 108.424 48.188 108.424 108.424h-222.871c6.024-60.235 54.212-108.424 114.447-108.424v0z" />
<glyph unicode="&#xe90c;" glyph-name="bid" horiz-adv-x="964" d="M596.329 460.047c-6.024 0-18.071 0-24.094 0s-18.071 0-24.094 0v-102.4h-114.447l-96.376-84.329v-162.635h-48.188v162.635h-150.588v-289.129h198.776l84.329-48.188h403.576v60.235h-108.424v30.118h108.424v60.235h-108.424v30.118h108.424v60.235h-108.424v30.118h108.424v60.235h-295.153v30.118h66.259v162.635zM626.447 357.647h48.188l42.165-60.235h-96.376l6.024 60.235zM572.235 960c-132.518 0-234.918-102.4-234.918-234.918v0c0-126.494 102.4-234.918 234.918-234.918 126.494 0 234.918 102.4 234.918 234.918-6.024 132.518-108.424 234.918-234.918 234.918zM554.165 881.694h36.141v-36.141c18.071-6.024 36.141-12.047 48.188-24.094-6.024-6.024-18.071-24.094-24.094-30.118l-6.024 6.024c-18.071 12.047-54.212 12.047-66.259-6.024-12.047-12.047-12.047-30.118 6.024-36.141s42.165-6.024 60.235-18.071c24.094-12.047 42.165-36.141 42.165-66.259s-30.118-54.212-54.212-60.235v-36.141h-42.165v36.141c-18.071 0-30.118 6.024-48.188 18.071 6.024 6.024 12.047 18.071 18.071 30.118 12.047-6.024 24.094-12.047 36.141-12.047 18.071 0 36.141 0 42.165 18.071 6.024 12.047 0 24.094-6.024 30.118-18.071 12.047-42.165 12.047-60.235 18.071-24.094 12.047-42.165 30.118-42.165 60.235 0 36.141 24.094 66.259 54.212 72.282l6.024 36.141z" />
<glyph unicode="&#xe90d;" glyph-name="calendar" horiz-adv-x="964" d="M813.176 152.847v518.024c0 36.141-30.118 78.306-78.306 78.306h-72.282v66.259h-72.282v-78.306h-216.847v78.306h-78.306v-78.306h-66.259c-36.141 0-78.306-30.118-78.306-78.306v-512c0-36.141 30.118-78.306 78.306-78.306h512c36.141 12.047 72.282 48.188 72.282 84.329zM373.459 225.129h-78.306v78.306h78.306v-78.306zM373.459 369.694h-78.306v78.306h78.306v-78.306zM518.024 225.129h-72.282v78.306h78.306v-78.306zM518.024 369.694h-72.282v78.306h78.306v-78.306zM668.612 225.129h-78.306v78.306h78.306v-78.306zM668.612 369.694h-78.306v78.306h78.306v-78.306zM734.871 556.424h-505.976v72.282h512l-6.024-72.282z" />
<glyph unicode="&#xe90e;" glyph-name="certificates" horiz-adv-x="964" d="M0 833.506v-644.518h578.259v66.259h-512v512h831.247v-512h-60.235v-66.259h126.494v644.518zM126.494 707.012h704.753v-66.259h-704.753v66.259zM126.494 574.494h650.541v-66.259h-650.541v66.259zM126.494 448h451.765v-66.259h-451.765v66.259zM704.753 448c-54.212 0-96.376-42.165-96.376-96.376 0-30.118 12.047-54.212 30.118-72.282v-216.847l66.259 42.165 66.259-42.165v216.847c18.071 18.071 30.118 42.165 30.118 72.282 0 54.212-42.165 96.376-96.376 96.376zM704.753 381.741c18.071 0 30.118-12.047 30.118-30.118s-12.047-30.118-30.118-30.118c-18.071 0-30.118 12.047-30.118 30.118s12.047 30.118 30.118 30.118z" />
<glyph unicode="&#xe90f;" glyph-name="chart" horiz-adv-x="964" d="M843.294 110.682h-204.8v674.635h204.8v-674.635zM584.282 110.682h-204.8v463.812h204.8v-463.812zM325.271 110.682h-204.8v313.224h204.8v-313.224z" />
<glyph unicode="&#xe910;" glyph-name="close" horiz-adv-x="964" d="M752.941 797.365l-271.059-271.059-271.059 271.059-78.306-78.306 271.059-271.059-271.059-271.059 78.306-78.306 271.059 271.059 271.059-271.059 78.306 78.306-271.059 271.059 271.059 271.059-78.306 78.306z" />
<glyph unicode="&#xe911;" glyph-name="container" horiz-adv-x="964" d="M0 700.988v-499.953h963.765v499.953h-963.765zM921.6 237.176h-879.435v421.647h879.435v-421.647zM84.329 616.659h42.165v-337.318h-42.165v337.318zM168.659 616.659h42.165v-337.318h-42.165v337.318zM252.988 616.659h42.165v-337.318h-42.165v337.318zM337.318 616.659h42.165v-337.318h-42.165v337.318zM421.647 616.659h42.165v-337.318h-42.165v337.318zM499.953 616.659h42.165v-337.318h-42.165v337.318zM584.282 616.659h42.165v-337.318h-42.165v337.318zM668.612 616.659h42.165v-337.318h-42.165v337.318zM752.941 616.659h42.165v-337.318h-42.165v337.318zM837.271 616.659h42.165v-337.318h-42.165v337.318z" />
<glyph unicode="&#xe912;" glyph-name="cow" horiz-adv-x="964" d="M18.071 761.224l6.024-12.047h48.188v18.071h-54.212v-6.024zM295.153 761.224h-198.776l42.165-259.012h120.471l36.141 259.012zM638.494 670.871l-96.376-30.118c-6.024 0-6.024 0-12.047 0l-96.376 30.118h-108.424l-36.141-192.753c0-6.024-6.024-12.047-18.071-12.047v0l90.353-331.294h42.165v168.659c0 6.024 6.024 18.071 18.071 18.071l391.529 6.024c6.024 0 12.047-6.024 12.047-12.047l12.047-36.141 54.212-66.259c0 0 6.024-6.024 6.024-12.047v-66.259h36.141l12.047 451.765-72.282 84.329h-234.918zM771.012 345.6l-12.047 78.306 36.141 6.024 12.047-78.306-36.141-6.024zM379.482 761.224h-42.165v-18.071h48.188v18.071z" />
<glyph unicode="&#xe913;" glyph-name="cowhead" horiz-adv-x="964" d="M861.365 568.471l-54.212 24.094c-24.094 6.024-54.212 0-78.306-18.071 0 0-6.024-6.024-6.024-6.024v0l-54.212 72.282 42.165 18.071 30.118 180.706-30.118 18.071-72.282-126.494-24.094-12.047-18.071 24.094h-228.894l-18.071-24.094-24.094 12.047-72.282 126.494-30.118-18.071 30.118-180.706 42.165-18.071-54.212-72.282c0 0-6.024 6.024-6.024 6.024-24.094 18.071-54.212 24.094-78.306 18.071l-54.212-24.094c-18.071-12.047-30.118-30.118-30.118-48.188s12.047-36.141 30.118-36.141h138.541c12.047 0 18.071 6.024 24.094 18.071l102.4-289.129-24.094-72.282 72.282-96.376h132.518l72.282 96.376-24.094 72.282 102.4 295.153c6.024-6.024 12.047-12.047 24.094-12.047h138.541c18.071-6.024 30.118 12.047 30.118 30.118s-12.047 30.118-30.118 42.165z" />
<glyph unicode="&#xe914;" glyph-name="crown" horiz-adv-x="964" d="M849.318 670.871l-180.706-114.447-180.706 234.918c0 0 0 0 0 0s0 0-6.024 0c0 0 0 0-6.024 0 0 0 0 0 0 0l-174.682-234.918-180.706 114.447c-6.024 0-18.071 0-12.047-12.047l66.259-542.118c0-6.024 6.024-12.047 12.047-12.047h578.259c6.024 0 12.047 6.024 12.047 12.047l78.306 542.118c6.024 12.047-6.024 12.047-6.024 12.047zM481.882 237.176c-60.235 0-108.424 48.188-108.424 108.424s48.188 102.4 108.424 102.4c60.235 0 108.424-48.188 108.424-108.424s-48.188-102.4-108.424-102.4zM481.882 387.765c-24.094 0-48.188-18.071-48.188-48.188 0-18.071 24.094-42.165 48.188-42.165s48.188 18.071 48.188 48.188c0 24.094-24.094 42.165-48.188 42.165z" />
<glyph unicode="&#xe915;" glyph-name="energy" horiz-adv-x="964" d="M481.882 839.529c-204.8 0-391.529-168.659-391.529-391.529 0-90.353 30.118-174.682 84.329-240.941l-84.329-90.353 60.235-60.235 90.353 84.329c66.259-54.212 150.588-84.329 240.941-84.329 102.4 0 198.776 36.141 277.082 114.447 36.141 36.141 66.259 78.306 84.329 126.494s30.118 96.376 30.118 150.588v391.529h-391.529zM650.541 435.953l-228.894-198.776c-6.024-6.024-18.071-6.024-24.094 0 0 0-6.024 6.024-6.024 12.047s0 6.024 6.024 12.047l108.424 144.565-174.682 12.047c-6.024 0-6.024 0-12.047 6.024-6.024 0-6.024 6.024-6.024 12.047s0 6.024 0 12.047 6.024 6.024 6.024 12.047l216.847 198.776c6.024 6.024 18.071 6.024 24.094 0s6.024-18.071 0-24.094l-102.4-144.565 174.682-12.047c24.094-6.024 30.118-30.118 18.071-42.165z" />
<glyph unicode="&#xe916;" glyph-name="error" horiz-adv-x="964" d="M289.129 225.129h24.094c0-24.094-6.024-48.188-18.071-78.306s-6.024-66.259 24.094-84.329c12.047-12.047 30.118-18.071 48.188-18.071 12.047 0 24.094 6.024 36.141 12.047 78.306 42.165 144.565 114.447 186.729 174.682h72.282c114.447 0 204.8 90.353 204.8 204.8v216.847c0 114.447-90.353 204.8-204.8 204.8h-373.459c-108.424 0-198.776-90.353-198.776-204.8v-228.894c0-108.424 90.353-198.776 198.776-198.776v0zM186.729 652.8c0 60.235 48.188 108.424 108.424 108.424h379.482c60.235 0 108.424-48.188 108.424-108.424v-228.894c0-60.235-48.188-108.424-108.424-108.424h-102.4c-18.071 0-30.118-6.024-42.165-18.071-24.094-36.141-72.282-96.376-132.518-138.541 12.047 42.165 12.047 84.329 12.047 114.447 0 24.094-24.094 48.188-48.188 48.188h-66.259c-60.235 0-108.424 48.188-108.424 108.424v222.871zM373.459 429.929c12.047-6.024 24.094-12.047 36.141-12.047s24.094 6.024 36.141 12.047l36.141 42.165 36.141-36.141c12.047-12.047 24.094-18.071 36.141-18.071s24.094 6.024 36.141 12.047c18.071 18.071 18.071 48.188 0 66.259l-42.165 42.165 36.141 36.141c18.071 18.071 18.071 48.188 0 66.259-12.047 24.094-42.165 24.094-66.259 6.024l-36.141-36.141-36.141 36.141c-24.094 18.071-54.212 18.071-72.282 0s-18.071-48.188 0-66.259l42.165-42.165-42.165-36.141c-18.071-18.071-18.071-48.188 0-72.282v0z" />
<glyph unicode="&#xe917;" glyph-name="facebook" horiz-adv-x="964" d="M843.294 839.529h-722.824c-12.047 0-30.118-18.071-30.118-30.118v-716.8c0-18.071 18.071-36.141 30.118-36.141h722.824c18.071 0 30.118 12.047 30.118 30.118v722.824c0 12.047-18.071 30.118-30.118 30.118zM807.153 122.729h-180.706v240.941h102.4l18.071 120.471h-114.447v66.259c0 36.141 12.047 60.235 60.235 60.235h60.235v102.4c-12.047 6.024-48.188 6.024-90.353 6.024-90.353 0-156.612-54.212-156.612-156.612v-84.329h-96.376v-120.471h102.4v-240.941h-355.388v656.565h656.565v-650.541z" />
<glyph unicode="&#xe918;" glyph-name="farm" horiz-adv-x="964" d="M831.247 508.235l-228.894 96.376-228.894-96.376-78.306-204.8h48.188v-204.8h168.659v192.753h192.753v-192.753h168.659v204.8h48.188l-90.353 204.8zM650.541 387.765h-96.376v96.376h96.376v-96.376zM337.318 652.8c0 78.306-66.259 144.565-144.565 144.565s-144.565-66.259-144.565-144.565v-554.165h240.941v156.612h-72.282l120.471 301.176v96.376z" />
<glyph unicode="&#xe919;" glyph-name="file" horiz-adv-x="964" d="M783.059 616.659c-6.024 18.071-12.047 36.141-24.094 48.188l-108.424 126.494c-24.094 24.094-48.188 36.141-78.306 36.141h-313.224c-18.071 0-42.165-6.024-54.212-24.094-18.071-12.047-24.094-30.118-24.094-48.188v-608.376c0-18.071 6.024-42.165 24.094-54.212 12.047-12.047 36.141-24.094 54.212-24.094h445.741c18.071 0 42.165 6.024 54.212 24.094 12.047 12.047 24.094 36.141 24.094 54.212v451.765c0 6.024 0 12.047 0 18.071v0zM584.282 761.224c6.024 0 132.518-150.588 138.541-156.612h-90.353c-12.047 0-24.094 6.024-30.118 12.047-18.071 18.071-18.071 30.118-18.071 42.165v102.4zM716.8 140.8c0-6.024-6.024-12.047-12.047-12.047h-445.741c-6.024 0-12.047 6.024-12.047 12.047v614.4c0 6.024 6.024 12.047 12.047 12.047h259.012v-108.424c0-30.118 12.047-60.235 30.118-78.306s48.188-30.118 78.306-36.141h90.353v-403.576z" />
<glyph unicode="&#xe91a;" glyph-name="hammer" horiz-adv-x="964" d="M512 833.506l325.271-325.271-60.235-60.235-42.165 12.047-102.4-102.4 234.918-234.918-60.235-60.235-234.918 234.918-102.4-102.4 12.047-42.165-60.235-60.235-325.271 325.271 60.235 60.235 48.188-12.047 265.035 265.035-18.071 42.165 60.235 60.235zM542.118 682.918l-295.153-295.153 144.565-150.588 301.176 301.176-150.588 144.565z" />
<glyph unicode="&#xe91b;" glyph-name="home" horiz-adv-x="964" d="M771.012 74.541h-174.682c-18.071 0-36.141 6.024-54.212 24.094-12.047 12.047-24.094 30.118-24.094 54.212v162.635h-78.306v-162.635c0-18.071-6.024-36.141-24.094-54.212-12.047-12.047-30.118-24.094-54.212-24.094h-168.659c-18.071 0-36.141 6.024-54.212 24.094-12.047 12.047-18.071 30.118-18.071 48.188v337.318c0 12.047 0 18.071 6.024 30.118 0 6.024 6.024 18.071 18.071 24.094l289.129 265.035c12.047 12.047 30.118 18.071 48.188 18.071s36.141-6.024 48.188-18.071l289.129-265.035c6.024-6.024 12.047-18.071 18.071-24.094 6.024-12.047 6.024-18.071 6.024-30.118v-337.318c0-18.071-6.024-36.141-24.094-54.212-6.024-12.047-24.094-18.071-48.188-18.071zM614.4 164.894h144.565v313.224l-277.082 252.988-277.082-252.988v-313.224h144.565v162.635c0 18.071 6.024 36.141 24.094 54.212 12.047 6.024 30.118 12.047 48.188 12.047h120.471c18.071 0 36.141-6.024 54.212-24.094 12.047-12.047 24.094-30.118 24.094-54.212v-150.588z" />
<glyph unicode="&#xe91c;" glyph-name="house" horiz-adv-x="964" d="M885.459 628.706l-409.6 265.035-397.553-265.035v-626.447h301.176v234.918c0 54.212 48.188 102.4 102.4 102.4s102.4-48.188 102.4-102.4v-234.918h301.176v626.447z" />
<glyph unicode="&#xe91d;" glyph-name="industry" horiz-adv-x="964" d="M391.529 484.141v403.576l481.882-265.035v-614.4h-783.059v614.4l301.176-138.541z" />
<glyph unicode="&#xe91e;" glyph-name="linkedin" horiz-adv-x="964" d="M807.153 839.529h-650.541c-36.141 0-60.235-30.118-60.235-60.235v-656.565c0-36.141 30.118-60.235 60.235-60.235h656.565c36.141 0 60.235 30.118 60.235 60.235v650.541c0 36.141-30.118 66.259-66.259 66.259v0zM807.153 122.729c-439.718 0-656.565 0-656.565 0 0 439.718 0 656.565 0 656.565 439.718 0 656.565 0 656.565 0 0-439.718 0-656.565 0-656.565zM204.8 544.376h114.447v-373.459h-114.447v373.459zM265.035 598.588c36.141 0 66.259 30.118 66.259 66.259 0 6.024 0 18.071-6.024 24.094s-6.024 18.071-12.047 24.094c-6.024 6.024-12.047 12.047-24.094 12.047-6.024 6.024-18.071 6.024-24.094 6.024s-18.071 0-24.094-6.024c-12.047 0-18.071-6.024-24.094-12.047s-12.047-18.071-12.047-24.094-6.024-18.071-6.024-24.094c0-36.141 30.118-66.259 66.259-66.259zM512 357.647c0 48.188 12.047 96.376 72.282 96.376s60.235-54.212 60.235-96.376v-180.706h114.447v198.776c0 102.4-24.094 174.682-138.541 174.682-54.212 0-96.376-30.118-108.424-60.235v0 54.212h-114.447v-373.459h114.447v186.729z" />
<glyph unicode="&#xe91f;" glyph-name="login" horiz-adv-x="964" d="M656.565 448l-252.988 210.824v-126.494h-295.153v-168.659h295.153v-126.494zM771.012 152.847h-337.318v-84.329h337.318c48.188 0 84.329 36.141 84.329 84.329v590.306c0 48.188-36.141 84.329-84.329 84.329h-337.318v-84.329h337.318v-590.306z" />
<glyph unicode="&#xe920;" glyph-name="logistic" horiz-adv-x="964" d="M740.894 484.141v445.741h-518.024v-445.741h-222.871v-518.024h963.765v518.024h-222.871zM295.153 863.624h156.612v-102.4l30.118 12.047 36.141-18.071v108.424h156.612v-379.482h-379.482v379.482zM445.741 32.376h-379.482v379.482h156.612v-102.4l36.141 18.071 36.141-18.071v102.4h156.612v-379.482zM897.506 32.376h-379.482v379.482h156.612v-102.4l36.141 18.071 36.141-18.071v102.4h156.612v-379.482z" />
<glyph unicode="&#xe921;" glyph-name="logout" horiz-adv-x="964" d="M861.365 448l-252.988 210.824v-126.494h-295.153v-168.659h295.153v-126.494l252.988 210.824zM186.729 743.153h337.318v84.329h-337.318c-48.188 0-84.329-36.141-84.329-84.329v-590.306c0-48.188 36.141-84.329 84.329-84.329h337.318v84.329h-337.318v590.306z" />
<glyph unicode="&#xe922;" glyph-name="mail" horiz-adv-x="964" d="M849.318 761.224h-734.871c-18.071 0-30.118-12.047-30.118-30.118v-566.212c0-18.071 12.047-30.118 30.118-30.118h740.894c18.071 0 30.118 12.047 30.118 30.118v566.212c-6.024 18.071-18.071 30.118-36.141 30.118zM764.988 694.965l-283.106-222.871-283.106 222.871h566.212zM819.2 664.847v-457.788h-674.635v457.788l301.176-234.918c12.047-12.047 24.094-12.047 36.141-12.047s24.094 0 30.118 6.024l307.2 240.941v0z" />
<glyph unicode="&#xe923;" glyph-name="marker" horiz-adv-x="964" d="M481.882 893.741c-180.706 0-331.294-150.588-331.294-331.294s180.706-403.576 331.294-554.165c144.565 144.565 331.294 373.459 331.294 554.165s-150.588 331.294-331.294 331.294zM481.882 399.812c-84.329 0-150.588 66.259-150.588 150.588s66.259 156.612 150.588 156.612c84.329 0 150.588-66.259 150.588-150.588s-66.259-156.612-150.588-156.612z" />
<glyph unicode="&#xe924;" glyph-name="marker-outline" horiz-adv-x="964" d="M481.882 448c-48.188 0-84.329 36.141-84.329 84.329s36.141 84.329 84.329 84.329 84.329-36.141 84.329-84.329c0-48.188-36.141-84.329-84.329-84.329zM728.847 520.282c0 150.588-108.424 259.012-246.965 259.012s-246.965-108.424-246.965-259.012c0-96.376 78.306-222.871 246.965-379.482 168.659 156.612 246.965 283.106 246.965 379.482zM481.882 863.624c174.682 0 331.294-132.518 331.294-337.318 0-138.541-108.424-301.176-331.294-487.906-222.871 186.729-331.294 349.365-331.294 487.906 0 204.8 156.612 337.318 331.294 337.318z" />
<glyph unicode="&#xe925;" glyph-name="play" horiz-adv-x="964" d="M752.941 448l-542.118-361.412v722.824l542.118-361.412z" />
<glyph unicode="&#xe926;" glyph-name="plus-circle-outline" horiz-adv-x="964" d="M481.882-33.882c-265.035 0-481.882 216.847-481.882 481.882s216.847 481.882 481.882 481.882 481.882-216.847 481.882-481.882-216.847-481.882-481.882-481.882zM481.882 899.765c-246.965 0-451.765-204.8-451.765-451.765s204.8-451.765 451.765-451.765c246.965 0 451.765 204.8 451.765 451.765s-204.8 451.765-451.765 451.765zM475.859 719.059h30.118v-560.188h-30.118v560.188zM210.824 454.024h560.188v-30.118h-560.188v30.118z" />
<glyph unicode="&#xe927;" glyph-name="population" horiz-adv-x="964" d="M632.471 182.965c6.024-6.024 6.024-12.047 6.024-18.071s0-12.047-6.024-18.071c0-6.024-6.024-12.047-12.047-12.047s-12.047-6.024-18.071-6.024h-566.212c-6.024 0-12.047 0-18.071 6.024s-12.047 6.024-12.047 12.047c-6.024 12.047-6.024 18.071-6.024 24.094s0 12.047 6.024 18.071c42.165 66.259 108.424 114.447 180.706 138.541-42.165 30.118-72.282 72.282-90.353 120.471-18.071 42.165-18.071 96.376-6.024 144.565s42.165 90.353 84.329 120.471c42.165 30.118 90.353 48.188 144.565 48.188s102.4-18.071 144.565-48.188c42.165-30.118 72.282-72.282 84.329-120.471s12.047-102.4-6.024-150.588c-18.071-48.188-48.188-90.353-90.353-120.471 72.282-24.094 138.541-72.282 180.706-138.541zM957.741 182.965c-42.165 66.259-108.424 114.447-180.706 138.541 42.165 30.118 78.306 72.282 90.353 120.471 18.071 48.188 18.071 102.4 6.024 150.588s-42.165 90.353-84.329 120.471c-42.165 30.118-90.353 48.188-144.565 48.188-24.094 0-42.165-6.024-66.259-6.024-6.024 0-12.047-6.024-12.047-6.024s-6.024-12.047-6.024-18.071c0-6.024 0-12.047 0-18.071s0-12.047 6.024-12.047c36.141-48.188 54.212-108.424 60.235-168.659 0-60.235-12.047-120.471-42.165-168.659-6.024-6.024-6.024-12.047-6.024-24.094 0-6.024 6.024-12.047 12.047-18.071 12.047-12.047 24.094-18.071 36.141-30.118v0c42.165-42.165 78.306-84.329 102.4-138.541 0-6.024 6.024-12.047 12.047-12.047 6.024-6.024 12.047-6.024 18.071-6.024h180.706c6.024 0 12.047 0 18.071 6.024s6.024 6.024 12.047 12.047c0 6.024 6.024 12.047 6.024 18.071-12.047 6.024-18.071 12.047-18.071 12.047z" />
<glyph unicode="&#xe928;" glyph-name="refresh" horiz-adv-x="964" d="M240.941 201.035c-6.024 6.024-6.024 12.047-12.047 18.071 0 6.024-6.024 12.047-6.024 18.071s0 12.047 6.024 18.071c0 6.024 6.024 12.047 12.047 18.071s12.047 6.024 18.071 12.047c6.024 0 12.047 6.024 18.071 6.024s12.047 0 18.071-6.024c6.024 0 12.047-6.024 18.071-12.047 36.141-36.141 78.306-60.235 126.494-66.259s96.376-6.024 138.541 12.047c42.165 18.071 84.329 48.188 108.424 90.353s42.165 90.353 42.165 138.541c0 12.047 6.024 24.094 12.047 36.141 12.047 12.047 24.094 12.047 36.141 12.047s24.094-6.024 36.141-12.047c12.047-12.047 12.047-24.094 12.047-36.141 0-66.259-18.071-132.518-60.235-192.753-36.141-54.212-90.353-102.4-156.612-126.494-60.235-24.094-132.518-30.118-198.776-18.071-60.235 12.047-120.471 42.165-168.659 90.353v0zM656.565 303.435c-6.024-6.024-12.047-6.024-18.071-6.024s-12.047 0-18.071 0c-6.024 0-12.047 6.024-18.071 6.024-6.024 6.024-12.047 6.024-12.047 12.047-6.024 12.047-12.047 24.094-6.024 36.141 0 12.047 12.047 24.094 18.071 30.118l144.565 96.376c6.024 6.024 12.047 6.024 18.071 6.024s12.047 0 18.071 0c6.024 0 12.047-6.024 18.071-6.024 12.047 0 12.047 0 18.071-6.024s6.024-12.047 6.024-18.071c0-6.024 0-12.047 0-18.071s-6.024-12.047-6.024-18.071c-6.024-6.024-6.024-12.047-12.047-12.047l-150.588-102.4zM915.576 321.506c6.024-12.047 12.047-24.094 6.024-36.141 0-12.047-12.047-24.094-18.071-30.118-12.047-6.024-24.094-12.047-36.141-6.024-12.047 0-24.094 12.047-30.118 18.071l-102.4 150.588c-6.024 6.024-6.024 12.047-6.024 18.071s0 12.047 0 18.071 12.047 24.094 18.071 30.118c12.047 6.024 24.094 12.047 36.141 6.024 12.047 0 24.094-12.047 30.118-18.071l102.4-150.588zM722.824 694.965c6.024-6.024 6.024-12.047 12.047-18.071 0-6.024 6.024-12.047 6.024-18.071s0-12.047-6.024-18.071c0-6.024-6.024-12.047-12.047-18.071s-12.047-6.024-18.071-12.047c-6.024 0-12.047-6.024-18.071-6.024s-12.047 0-18.071 6.024c-6.024 0-12.047 6.024-18.071 12.047-36.141 36.141-78.306 60.235-126.494 66.259-42.165 12.047-96.376 6.024-138.541-12.047s-84.329-48.188-108.424-90.353c-30.118-36.141-42.165-84.329-42.165-132.518 0-12.047-6.024-24.094-12.047-36.141-12.047-6.024-24.094-12.047-36.141-12.047s-24.094 6.024-36.141 12.047c-6.024 12.047-12.047 24.094-12.047 36.141 0 66.259 18.071 132.518 60.235 192.753s90.353 102.4 156.612 126.494c60.235 24.094 132.518 30.118 198.776 18.071 60.235-18.071 120.471-48.188 168.659-96.376v0zM307.2 592.565c6.024 6.024 24.094 6.024 36.141 6.024s24.094-12.047 30.118-18.071c6.024-12.047 12.047-24.094 6.024-42.165 0-12.047-12.047-24.094-18.071-30.118l-150.588-96.376c-6.024-6.024-12.047-6.024-18.071-6.024s-12.047 0-18.071 0c-6.024 0-12.047 6.024-18.071 6.024-6.024 6.024-6.024 6.024-12.047 12.047-6.024 12.047-12.047 24.094-6.024 36.141 0 12.047 12.047 24.094 18.071 30.118l150.588 102.4zM48.188 574.494c-6.024 6.024-6.024 12.047-6.024 18.071s0 12.047 0 18.071c0 6.024 6.024 12.047 6.024 18.071s6.024 6.024 12.047 12.047c6.024 6.024 12.047 6.024 18.071 6.024s12.047 0 18.071 0c6.024 0 12.047-6.024 18.071-6.024 6.024-6.024 12.047-6.024 12.047-12.047l102.4-150.588c6.024-6.024 6.024-12.047 6.024-18.071s0-12.047 0-18.071c0-6.024-6.024-12.047-6.024-18.071s-12.047-6.024-18.071-12.047c-6.024-6.024-12.047-6.024-18.071-6.024s-12.047 0-18.071 0c-6.024 0-12.047 6.024-18.071 6.024-6.024 6.024-6.024 6.024-12.047 12.047l-96.376 150.588z" />
<glyph unicode="&#xe929;" glyph-name="results" horiz-adv-x="964" d="M120.471 688.941c0 12.047 0 24.094 12.047 36.141 6.024 6.024 18.071 12.047 30.118 12.047h457.788c12.047 0 24.094-6.024 30.118-12.047 6.024-12.047 12.047-24.094 12.047-36.141s-6.024-24.094-12.047-30.118c-6.024-6.024-18.071-12.047-30.118-12.047h-457.788c-12.047 0-24.094 6.024-30.118 12.047-12.047 6.024-12.047 18.071-12.047 30.118zM120.471 207.059c0 12.047 0 24.094 12.047 30.118 6.024 6.024 18.071 12.047 30.118 12.047h397.553c12.047 0 24.094-6.024 30.118-12.047s12.047-18.071 12.047-30.118c0-12.047-6.024-24.094-12.047-30.118s-18.071-12.047-30.118-12.047h-397.553c-12.047 0-24.094 6.024-30.118 12.047-12.047 6.024-12.047 18.071-12.047 30.118zM162.635 496.188c-12.047 0-24.094-6.024-30.118-18.071-12.047-6.024-12.047-18.071-12.047-30.118s0-24.094 12.047-30.118c6.024-6.024 18.071-12.047 30.118-12.047h638.494c12.047 0 24.094 6.024 30.118 12.047 12.047 6.024 12.047 18.071 12.047 30.118s0 24.094-12.047 30.118c-6.024 6.024-18.071 12.047-30.118 12.047h-638.494z" />
<glyph unicode="&#xe92a;" glyph-name="share" horiz-adv-x="964" d="M271.059 345.6c30.118 0 60.235 12.047 84.329 30.118l216.847-126.494c-6.024-30.118-6.024-60.235 12.047-84.329 12.047-24.094 36.141-48.188 60.235-60.235 30.118-12.047 60.235-12.047 84.329-6.024 30.118 12.047 54.212 30.118 66.259 54.212 18.071 24.094 18.071 54.212 18.071 84.329-6.024 30.118-18.071 54.212-42.165 72.282s-54.212 30.118-84.329 30.118c-30.118 0-60.235-12.047-78.306-30.118l-216.847 126.494c0 6.024 6.024 18.071 6.024 24.094l216.847 120.471c18.071-18.071 48.188-30.118 78.306-30.118s54.212 6.024 78.306 24.094c24.094 18.071 36.141 42.165 48.188 66.259 6.024 24.094 6.024 54.212-6.024 84.329-12.047 24.094-30.118 48.188-54.212 60.235-36.141 12.047-66.259 18.071-96.376 12.047s-54.212-18.071-72.282-42.165c-12.047-24.094-24.094-48.188-24.094-78.306 0-12.047 0-18.071 6.024-30.118l-198.776-114.447c-12.047 18.071-30.118 30.118-48.188 42.165s-42.165 12.047-60.235 12.047c-24.094 0-42.165-6.024-60.235-18.071s-30.118-24.094-42.165-42.165c-12.047-18.071-18.071-42.165-12.047-60.235 0-24.094 6.024-42.165 18.071-60.235 6.024-18.071 24.094-36.141 42.165-48.188 18.071-6.024 36.141-12.047 60.235-12.047z" />
<glyph unicode="&#xe92b;" glyph-name="ship" horiz-adv-x="964" d="M234.918 405.835l246.965 96.376 246.965-96.376v277.082h-493.929v-277.082zM289.129 628.706h385.506v-138.541l-192.753 78.306-192.753-78.306v138.541zM620.424-9.788c132.518 54.212 222.871 180.706 222.871 331.294l-361.412 138.541-361.412-138.541c0-150.588 90.353-277.082 222.871-331.294h-331.294v-54.212h945.694v54.212h-337.318zM512 26.353v361.412l265.035-102.4c-18.071-138.541-126.494-246.965-265.035-259.012zM192.753 285.365l265.035 102.4v-361.412c-144.565 12.047-252.988 120.471-265.035 259.012zM313.224 713.035h331.294v108.424h108.424v54.212h-240.941v84.329h-60.235v-84.329h-246.965v-54.212h108.424v-108.424zM373.459 821.459h222.871v-54.212h-222.871v54.212z" />
<glyph unicode="&#xe92c;" glyph-name="signup" horiz-adv-x="964" d="M301.176 441.976h-120.471c-84.329 0-156.612-60.235-168.659-144.565l-12.047-138.541c0-18.071 12.047-36.141 24.094-36.141 66.259-12.047 138.541-24.094 216.847-24.094 72.282 0 144.565 6.024 216.847 24.094 12.047 0 24.094 18.071 24.094 36.141l-18.071 138.541c-6.024 78.306-78.306 144.565-162.635 144.565v0zM397.553 640.753c0-84.329-72.282-156.612-156.612-156.612s-156.612 72.282-156.612 156.612c0 84.329 72.282 156.612 156.612 156.612 90.353 0 156.612-66.259 156.612-156.612zM945.694 508.235h-120.471v120.471c0 12.047-6.024 18.071-18.071 18.071h-90.353c-12.047 0-18.071-6.024-18.071-18.071v-120.471h-120.471c-12.047 0-18.071-6.024-18.071-18.071v-90.353c0-12.047 6.024-18.071 18.071-18.071h120.471v-120.471c0-12.047 6.024-18.071 18.071-18.071h90.353c12.047 0 18.071 6.024 18.071 18.071v120.471h120.471c12.047 0 18.071 6.024 18.071 18.071v90.353c0 12.047-6.024 18.071-18.071 18.071z" />
<glyph unicode="&#xe92d;" glyph-name="substract-circle-outline" horiz-adv-x="964" d="M481.882-33.882c-265.035 0-481.882 216.847-481.882 481.882s216.847 481.882 481.882 481.882 481.882-216.847 481.882-481.882-216.847-481.882-481.882-481.882zM481.882 899.765c-246.965 0-451.765-204.8-451.765-451.765s204.8-451.765 451.765-451.765 451.765 198.776 451.765 451.765c0 246.965-204.8 451.765-451.765 451.765zM204.8 460.047h554.165v-30.118h-554.165v30.118z" />
<glyph unicode="&#xe92e;" glyph-name="thumb-up" horiz-adv-x="964" d="M789.082 478.118h-144.565c-12.047 0-24.094-12.047-24.094-24.094v0c-36.141 12.047-72.282 30.118-102.4 54.212-30.118 30.118-48.188 78.306-42.165 120.471 0 30.118-24.094 54.212-54.212 54.212-18.071 0-66.259 0-84.329-84.329v0c-12.047-36.141-12.047-72.282-12.047-108.424h-84.329c-30.118 0-54.212-12.047-66.259-36.141-18.071-24.094-36.141-78.306 0-180.706l42.165-144.565c6.024-24.094 18.071-42.165 30.118-54.212 18.071-12.047 36.141-24.094 60.235-24.094h108.424c42.165 0 144.565 6.024 210.824 30.118v-6.024c0-12.047 12.047-24.094 24.094-24.094h144.565c12.047 0 24.094 12.047 24.094 24.094v385.506c0 6.024 0 12.047-6.024 18.071-12.047 0-18.071 0-24.094 0v0zM620.424 140.8c-30.118-24.094-132.518-36.141-210.824-36.141h-102.4c-12.047 0-24.094 6.024-30.118 12.047s-12.047 18.071-18.071 30.118c0 0 0 0 0 0l-42.165 144.565c0 0 0 0 0 0-30.118 90.353-18.071 126.494-6.024 138.541v0c6.024 12.047 18.071 18.071 30.118 18.071h114.447c6.024 0 12.047 0 18.071 6.024s6.024 12.047 6.024 18.071c0 0-12.047 72.282 0 114.447 6.024 30.118 24.094 54.212 36.141 54.212v0c6.024 0 18.071-6.024 18.071-12.047 0-54.212 18.071-114.447 54.212-150.588 42.165-42.165 102.4-60.235 132.518-66.259v-271.059zM385.506 755.2v60.235c0 12.047 12.047 24.094 24.094 24.094s24.094-12.047 24.094-24.094v-60.235c0-12.047-12.047-24.094-24.094-24.094s-24.094 12.047-24.094 24.094zM505.976 676.894c-6.024 12.047 0 24.094 6.024 30.118l54.212 30.118c6.024 6.024 12.047 6.024 18.071 0 6.024 0 12.047-6.024 12.047-12.047 0 6.024 6.024 0 0-6.024 0-6.024-6.024-12.047-12.047-12.047l-48.188-36.141c-6.024-6.024-12.047-6.024-18.071 0-6.024 0-12.047 0-12.047 6.024v0zM222.871 737.129c6.024 6.024 18.071 12.047 30.118 6.024l54.212-30.118c6.024 0 6.024-6.024 12.047-12.047 0-6.024 0-12.047 0-18.071-6.024-12.047-12.047-12.047-18.071-12.047s-12.047 0-18.071 0l-54.212 30.118c-12.047 12.047-12.047 24.094-6.024 36.141v0z" />
<glyph unicode="&#xe92f;" glyph-name="tick" horiz-adv-x="964" d="M740.894 767.247l-337.318-445.741-198.776 204.8-90.353-96.376 307.2-301.176 427.671 548.141-108.424 90.353z" />
<glyph unicode="&#xe930;" glyph-name="truck" horiz-adv-x="964" d="M6.024 640.753c0 36.141 18.071 72.282 42.165 102.4 24.094 24.094 66.259 42.165 102.4 42.165h289.129c36.141 0 72.282-18.071 102.4-42.165 24.094-24.094 42.165-66.259 42.165-102.4v-379.482c0-12.047-6.024-24.094-12.047-36.141-6.024-6.024-24.094-12.047-36.141-12.047h-198.776c-12.047 0-24.094 6.024-36.141 12.047-6.024 6.024-12.047 24.094-12.047 36.141s6.024 24.094 12.047 36.141c6.024 6.024 24.094 12.047 36.141 12.047h144.565v331.294c0 12.047-6.024 24.094-12.047 36.141-12.047 6.024-24.094 12.047-36.141 12.047h-289.129c-12.047 0-24.094-6.024-30.118-18.071-12.047-6.024-12.047-18.071-12.047-30.118v-289.129c0-12.047 6.024-24.094 12.047-36.141 6.024-6.024 24.094-12.047 36.141-12.047v-96.376c-36.141 0-72.282 18.071-102.4 42.165-24.094 24.094-42.165 66.259-42.165 102.4v289.129zM481.882 592.565c0 12.047 6.024 24.094 12.047 36.141 6.024 6.024 24.094 12.047 36.141 12.047h192.753c12.047 0 24.094-6.024 36.141-12.047l162.635-162.635c24.094-24.094 42.165-66.259 42.165-102.4v-6.024c0-36.141-18.071-72.282-42.165-102.4-24.094-24.094-66.259-42.165-102.4-42.165v96.376c12.047 0 24.094 6.024 36.141 12.047 6.024 6.024 12.047 24.094 12.047 36.141v6.024c0 12.047-6.024 24.094-12.047 36.141l-150.588 150.588h-126.494v-240.941h48.188c12.047 0 24.094-6.024 36.141-12.047 6.024-6.024 12.047-24.094 12.047-36.141s-6.024-24.094-12.047-36.141c-6.024-6.024-24.094-12.047-36.141-12.047h-96.376c-12.047 0-24.094 6.024-36.141 12.047-6.024 6.024-12.047 18.071-12.047 30.118v337.318zM240.941 303.435c-12.047 0-24.094-6.024-36.141-12.047-6.024-6.024-12.047-24.094-12.047-36.141s6.024-24.094 12.047-36.141c6.024-6.024 24.094-12.047 36.141-12.047s24.094 6.024 36.141 12.047c6.024 6.024 12.047 24.094 12.047 36.141s-6.024 24.094-12.047 36.141c-12.047 6.024-24.094 12.047-36.141 12.047zM102.4 255.247c0 18.071 6.024 36.141 12.047 54.212s18.071 36.141 30.118 48.188c12.047 12.047 30.118 24.094 48.188 30.118 12.047 6.024 30.118 12.047 48.188 12.047s36.141-6.024 54.212-12.047c18.071-6.024 36.141-18.071 48.188-30.118s24.094-30.118 30.118-48.188c6.024-18.071 12.047-36.141 12.047-54.212 0-36.141-18.071-72.282-42.165-102.4-24.094-24.094-66.259-42.165-102.4-42.165s-72.282 18.071-102.4 42.165c-24.094 30.118-36.141 66.259-36.141 102.4zM722.824 303.435c-12.047 0-24.094-6.024-36.141-12.047-6.024-6.024-12.047-24.094-12.047-36.141s6.024-24.094 12.047-36.141c6.024-6.024 24.094-12.047 36.141-12.047s24.094 6.024 36.141 12.047c6.024 6.024 12.047 24.094 12.047 36.141s-6.024 24.094-12.047 36.141c-12.047 6.024-24.094 12.047-36.141 12.047zM578.259 255.247c0 36.141 18.071 72.282 42.165 102.4s66.259 42.165 102.4 42.165c36.141 0 72.282-18.071 102.4-42.165 24.094-24.094 42.165-66.259 42.165-102.4s-18.071-72.282-42.165-102.4c-24.094-24.094-66.259-42.165-102.4-42.165s-72.282 18.071-102.4 42.165c-30.118 30.118-42.165 66.259-42.165 102.4z" />
<glyph unicode="&#xe931;" glyph-name="tv" horiz-adv-x="964" d="M795.106 670.871h-222.871l90.353 90.353-54.212 54.212-126.494-132.518-132.518 132.518-48.188-54.212 90.353-90.353h-222.871c-48.188 0-78.306-36.141-78.306-78.306v-433.694c0-48.188 30.118-78.306 78.306-78.306h626.447c48.188 0 78.306 30.118 78.306 78.306v433.694c0 42.165-30.118 78.306-78.306 78.306zM168.659 158.871v433.694h626.447v-433.694h-626.447z" />
<glyph unicode="&#xe932;" glyph-name="twitter" horiz-adv-x="964" d="M674.635 568.471c-12.047-6.024-30.118-12.047-48.188-12.047 24.094 6.024 36.141 24.094 42.165 42.165-18.071-12.047-30.118-18.071-48.188-18.071-12.047 6.024-24.094 12.047-30.118 18.071-12.047 6.024-24.094 6.024-36.141 6.024-42.165 0-78.306-36.141-78.306-78.306 0-6.024 0-12.047 0-18.071-30.118 0-60.235 12.047-90.353 24.094-24.094 12.047-54.212 30.118-72.282 60.235-6.024-12.047-12.047-30.118-12.047-42.165 0-30.118 12.047-54.212 36.141-66.259-12.047 0-24.094 6.024-36.141 12.047v0c0-18.071 6.024-36.141 18.071-48.188 12.047-18.071 30.118-30.118 48.188-30.118-12.047-6.024-24.094-6.024-36.141 0 6.024-18.071 12.047-30.118 30.118-42.165 12.047-12.047 30.118-18.071 42.165-18.071-30.118-24.094-66.259-36.141-102.4-36.141-6.024 0-12.047 0-18.071 0 36.141-24.094 78.306-36.141 120.471-36.141 144.565 0 228.894 120.471 228.894 222.871v12.047c18.071 18.071 36.141 30.118 42.165 48.188zM246.965 761.224c-18.071 0-42.165-6.024-54.212-24.094s-24.094-36.141-24.094-54.212v-469.835c0-18.071 6.024-42.165 24.094-54.212 12.047-12.047 36.141-24.094 54.212-24.094h469.835c18.071 0 42.165 6.024 54.212 24.094 12.047 12.047 24.094 36.141 24.094 54.212v469.835c0 18.071-6.024 42.165-24.094 54.212-12.047 12.047-36.141 24.094-54.212 24.094h-469.835zM246.965 839.529h469.835c42.165 0 78.306-18.071 108.424-48.188s48.188-66.259 48.188-108.424v-469.835c0-42.165-18.071-78.306-48.188-108.424s-66.259-48.188-108.424-48.188h-469.835c-42.165 0-78.306 18.071-108.424 48.188s-48.188 66.259-48.188 108.424v469.835c0 42.165 18.071 78.306 48.188 108.424s66.259 48.188 108.424 48.188z" />
<glyph unicode="&#xe933;" glyph-name="user-circle-outline" horiz-adv-x="964" d="M481.882 857.6c-108.424 0-210.824-42.165-289.129-120.471s-120.471-180.706-120.471-289.129c0-60.235 18.071-126.494 42.165-180.706 30.118-54.212 66.259-102.4 120.471-144.565v-6.024h6.024c66.259-54.212 150.588-84.329 240.941-84.329s168.659 30.118 240.941 84.329h6.024v6.024c48.188 36.141 90.353 84.329 120.471 144.565 30.118 54.212 42.165 120.471 42.165 180.706 0 108.424-42.165 210.824-120.471 289.129-78.306 72.282-180.706 114.447-289.129 120.471zM319.247 164.894c6.024 30.118 24.094 54.212 42.165 72.282 24.094 18.071 48.188 24.094 78.306 24.094h84.329c30.118 0 54.212-12.047 78.306-24.094 24.094-18.071 36.141-42.165 42.165-66.259-48.188-30.118-102.4-42.165-162.635-42.165s-114.447 6.024-162.635 36.141zM710.776 219.106c-18.071 36.141-42.165 66.259-72.282 90.353-36.141 24.094-72.282 36.141-114.447 36.141h-84.329c-42.165 0-78.306-12.047-114.447-36.141s-60.235-54.212-72.282-90.353c-30.118 30.118-54.212 66.259-72.282 102.4-18.071 42.165-24.094 84.329-24.094 126.494 0 84.329 36.141 168.659 96.376 228.894s144.565 96.376 228.894 96.376c84.329 0 168.659-36.141 228.894-96.376s96.376-144.565 96.376-228.894c0-42.165-12.047-84.329-24.094-126.494-18.071-36.141-42.165-72.282-72.282-102.4zM481.882 694.965c-24.094 0-42.165-6.024-60.235-12.047-24.094-12.047-42.165-24.094-54.212-36.141-18.071-18.071-30.118-36.141-36.141-54.212s-12.047-42.165-12.047-60.235c0-24.094 6.024-42.165 12.047-60.235s18.071-36.141 36.141-54.212c12.047-18.071 30.118-30.118 54.212-42.165 18.071-6.024 42.165-12.047 60.235-12.047 24.094 0 42.165 6.024 60.235 12.047s36.141 18.071 54.212 36.141c18.071 18.071 30.118 36.141 36.141 54.212s12.047 42.165 12.047 60.235c0 24.094-6.024 42.165-12.047 60.235s-18.071 36.141-36.141 54.212c-12.047 18.071-30.118 30.118-54.212 42.165-18.071 6.024-36.141 12.047-60.235 12.047zM481.882 448c-12.047 0-24.094 0-30.118 6.024-12.047 6.024-18.071 6.024-30.118 18.071-6.024 6.024-12.047 18.071-18.071 24.094 0 12.047-6.024 24.094-6.024 36.141s0 24.094 6.024 30.118c6.024 12.047 12.047 18.071 18.071 24.094 12.047 12.047 18.071 18.071 30.118 18.071 6.024 6.024 18.071 6.024 30.118 6.024s24.094 0 30.118-6.024c12.047 0 18.071-6.024 30.118-18.071 6.024-6.024 12.047-18.071 18.071-24.094 0-12.047 6.024-24.094 6.024-30.118 0-12.047 0-24.094-6.024-30.118-6.024-12.047-12.047-24.094-18.071-30.118-12.047-12.047-18.071-12.047-30.118-18.071-6.024-6.024-18.071-6.024-30.118-6.024z" />
<glyph unicode="&#xe934;" glyph-name="waves" horiz-adv-x="964" d="M216.847 580.518c60.235 0 96.376 30.118 120.471 54.212 18.071 24.094 30.118 36.141 54.212 36.141s36.141-12.047 54.212-30.118c24.094-24.094 54.212-54.212 120.471-54.212 60.235 0 96.376 30.118 120.471 54.212 24.094 18.071 36.141 30.118 60.235 30.118s36.141-12.047 54.212-36.141c24.094-24.094 54.212-54.212 120.471-54.212v90.353c-24.094 0-36.141 12.047-54.212 30.118-24.094 24.094-54.212 54.212-120.471 54.212s-96.376-30.118-120.471-54.212c-24.094-24.094-30.118-30.118-60.235-30.118-24.094 0-30.118 6.024-54.212 30.118s-54.212 54.212-120.471 54.212-96.376-30.118-120.471-54.212c-18.071-24.094-30.118-30.118-54.212-30.118s-36.141 6.024-60.235 30.118c-24.094 24.094-54.212 54.212-120.471 54.212v-90.353c24.094 0 36.141-12.047 54.212-30.118 30.118-24.094 66.259-54.212 126.494-54.212zM216.847 357.647c60.235 0 96.376 30.118 120.471 54.212s30.118 30.118 54.212 30.118c24.094 0 36.141-12.047 54.212-30.118 24.094-24.094 54.212-54.212 120.471-54.212 60.235 0 96.376 30.118 120.471 54.212s30.118 30.118 54.212 30.118 42.165-6.024 60.235-24.094c24.094-24.094 54.212-54.212 120.471-54.212v84.329c-24.094 0-36.141 12.047-54.212 30.118-24.094 24.094-60.235 60.235-120.471 60.235s-96.376-30.118-120.471-54.212c-24.094-24.094-30.118-30.118-60.235-30.118-24.094-6.024-30.118 6.024-54.212 24.094-24.094 24.094-54.212 60.235-120.471 60.235s-96.376-36.141-120.471-60.235c-18.071-18.071-30.118-30.118-54.212-30.118s-36.141 12.047-60.235 30.118c-18.071 24.094-54.212 60.235-114.447 60.235v-90.353c24.094 0 36.141-12.047 54.212-30.118 24.094-24.094 60.235-60.235 120.471-60.235zM216.847 140.8c60.235 0 96.376 30.118 120.471 54.212s30.118 30.118 54.212 30.118c24.094 0 36.141-12.047 54.212-30.118 24.094-24.094 54.212-54.212 120.471-54.212 60.235 0 96.376 30.118 120.471 54.212s30.118 30.118 54.212 30.118 36.141-12.047 54.212-30.118c24.094-24.094 54.212-54.212 120.471-54.212v90.353c-24.094 0-36.141 12.047-54.212 30.118-24.094 24.094-54.212 54.212-120.471 54.212s-96.376-30.118-120.471-54.212c-24.094-24.094-30.118-30.118-60.235-30.118-24.094 0-36.141 12.047-54.212 30.118-24.094 24.094-54.212 54.212-120.471 54.212s-96.376-30.118-120.471-54.212c-12.047-24.094-24.094-36.141-48.188-36.141s-36.141 12.047-60.235 36.141c-24.094 24.094-54.212 54.212-120.471 54.212v-90.353c24.094 0 36.141-12.047 54.212-30.118 30.118-24.094 66.259-54.212 126.494-54.212z" />
<glyph unicode="&#xe935;" glyph-name="whatsapp" horiz-adv-x="964" d="M668.612 363.671c-12.047 6.024-60.235 30.118-72.282 36.141-6.024 0-12.047 6.024-18.071-6.024s-30.118-36.141-36.141-42.165c-6.024-6.024-12.047-6.024-24.094 0-6.024 6.024-36.141 12.047-78.306 48.188-30.118 30.118-48.188 60.235-54.212 72.282s0 18.071 6.024 24.094c6.024 6.024 12.047 12.047 18.071 18.071s6.024 12.047 12.047 18.071c6.024 6.024 0 12.047 0 18.071s-24.094 54.212-30.118 78.306c-18.071 18.071-24.094 18.071-30.118 18.071s-12.047 0-18.071 0c-6.024 0-18.071 0-24.094-12.047-18.071-12.047-42.165-36.141-42.165-90.353s36.141-102.4 42.165-108.424c6.024-6.024 72.282-114.447 174.682-156.612 24.094-12.047 42.165-18.071 60.235-24.094 24.094-6.024 48.188-6.024 66.259-6.024s60.235 24.094 66.259 48.188c6.024 24.094 6.024 48.188 6.024 48.188-6.024 12.047-12.047 12.047-24.094 18.071v0zM481.882 104.659v0c-60.235 0-120.471 18.071-174.682 48.188l-6.024 6.024-126.494-36.141 36.141 126.494-6.024 12.047c-36.141 54.212-54.212 120.471-54.212 186.729 0 192.753 150.588 349.365 337.318 349.365 90.353 0 174.682-36.141 240.941-102.4 30.118-30.118 54.212-72.282 72.282-114.447s24.094-84.329 24.094-132.518c-6.024-186.729-156.612-343.341-343.341-343.341zM771.012 749.176c-36.141 36.141-84.329 72.282-132.518 90.353s-102.4 30.118-156.612 30.118c-222.871 0-403.576-186.729-403.576-415.624 0-72.282 18.071-144.565 54.212-210.824l-60.235-216.847 216.847 60.235c60.235-36.141 126.494-48.188 192.753-48.188v0c222.871 0 403.576 186.729 403.576 415.624 0 54.212-12.047 108.424-30.118 162.635-18.071 48.188-48.188 90.353-84.329 132.518z" />
<glyph unicode="&#xe936;" glyph-name="send-mail" horiz-adv-x="964" d="M433.694 508.235l234.918-120.471 234.918 120.471v-228.894h-469.835v228.894zM433.694 616.659h475.859v-48.188l-234.918-120.471-234.918 120.471v48.188zM337.318 544.376v60.235h-337.318v-54.212h337.318zM337.318 478.118h-234.918v-60.235h234.918v60.235zM337.318 351.624h-138.541v-54.212h138.541v54.212zM963.765 676.894h-584.282v-457.788h584.282v457.788z" />
<glyph unicode="&#xe937;" glyph-name="facebook-rounded" d="M1001.472 448c0 270.336-219.136 489.472-489.472 489.472s-489.472-219.136-489.472-489.472c0-243.712 178.176-446.464 413.696-483.328v342.016h-124.928v141.312h124.928v108.544c0 122.88 73.728 190.464 184.32 190.464 53.248 0 110.592-10.24 110.592-10.24v-120.832h-61.44c-61.44 0-79.872-36.864-79.872-75.776v-92.16h135.168l-22.528-141.312h-114.688v-342.016c235.52 36.864 413.696 239.616 413.696 483.328z" />
<glyph unicode="&#xe938;" glyph-name="instagram-rounded" d="M512 568.832c-65.536 0-120.832-53.248-120.832-120.832s53.248-120.832 120.832-120.832c65.536 0 120.832 53.248 120.832 120.832 0 65.536-55.296 120.832-120.832 120.832zM512 368.128c-45.056 0-79.872 36.864-79.872 79.872 0 45.056 36.864 79.872 79.872 79.872 45.056 0 79.872-36.864 79.872-79.872 0-45.056-34.816-79.872-79.872-79.872zM643.072 607.744c-16.384 0-30.72-14.336-30.72-30.72s14.336-30.72 30.72-30.72c16.384 0 30.72 14.336 30.72 30.72-2.048 18.432-14.336 30.72-30.72 30.72zM512 939.52c-272.384 0-491.52-219.136-491.52-491.52s219.136-491.52 491.52-491.52 491.52 219.136 491.52 491.52-219.136 491.52-491.52 491.52zM761.856 337.408c0-77.824-63.488-141.312-141.312-141.312h-219.136c-77.824 0-141.312 63.488-141.312 141.312v221.184c0 77.824 63.488 141.312 141.312 141.312h221.184c77.824 0 141.312-63.488 141.312-141.312v-221.184z" />
<glyph unicode="&#xe939;" glyph-name="newsletter" horiz-adv-x="964" d="M572.235 719.059v-90.353h-391.529v90.353h391.529zM180.706 448h391.529v90.353h-391.529v-90.353zM957.741 285.365v-120.471c0-108.424-84.329-192.753-192.753-192.753h-566.212c-108.424 0-192.753 84.329-192.753 192.753v686.682c0 42.165 36.141 72.282 72.282 72.282h596.329c42.165 0 72.282-36.141 72.282-72.282v-524.047h162.635c30.118 0 48.188-18.071 48.188-42.165v0zM349.365 327.529h313.224v512h-572.235v-674.635c0-60.235 48.188-102.4 102.4-102.4s108.424 42.165 108.424 102.4v120.471c0 24.094 24.094 42.165 48.188 42.165v0zM873.412 237.176h-481.882v-72.282c0-36.141-12.047-72.282-30.118-102.4h403.576c60.235 0 102.4 48.188 102.4 102.4l6.024 72.282z" />
<glyph unicode="&#xe93a;" glyph-name="grid" horiz-adv-x="964" d="M391.529 911.812h-331.294c-24.094 0-42.165-18.071-42.165-42.165v-331.294c0-24.094 18.071-42.165 42.165-42.165h331.294c24.094 0 42.165 18.071 42.165 42.165v331.294c0 24.094-18.071 42.165-42.165 42.165v0zM903.529 911.812h-331.294c-24.094 0-42.165-18.071-42.165-42.165v-331.294c0-24.094 18.071-42.165 42.165-42.165h331.294c24.094 0 42.165 18.071 42.165 42.165v331.294c0 24.094-18.071 42.165-42.165 42.165v0zM391.529 399.812h-331.294c-24.094 0-42.165-18.071-42.165-42.165v-331.294c0-24.094 18.071-42.165 42.165-42.165h331.294c24.094 0 42.165 18.071 42.165 42.165v331.294c0 24.094-18.071 42.165-42.165 42.165v0zM903.529 399.812h-331.294c-24.094 0-42.165-18.071-42.165-42.165v-331.294c0-24.094 18.071-42.165 42.165-42.165h331.294c24.094 0 42.165 18.071 42.165 42.165v331.294c0 24.094-18.071 42.165-42.165 42.165v0z" />
<glyph unicode="&#xe93b;" glyph-name="list" horiz-adv-x="964" d="M879.435 532.329h-487.906c-48.188 0-84.329-36.141-84.329-84.329s36.141-84.329 84.329-84.329h487.906c48.188 0 84.329 36.141 84.329 84.329 0 42.165-42.165 84.329-84.329 84.329zM879.435 195.012h-487.906c-48.188 0-84.329-36.141-84.329-84.329s36.141-84.329 84.329-84.329h487.906c48.188 0 84.329 36.141 84.329 84.329 0 42.165-42.165 84.329-84.329 84.329zM879.435 869.647h-487.906c-48.188 0-84.329-36.141-84.329-84.329s36.141-84.329 84.329-84.329h487.906c48.188 0 84.329 36.141 84.329 84.329 0 42.165-42.165 84.329-84.329 84.329zM132.518 893.741h-48.188c-48.188 0-84.329-42.165-84.329-84.329v-48.188c0-48.188 36.141-84.329 84.329-84.329h48.188c48.188 0 84.329 36.141 84.329 84.329v48.188c0 42.165-36.141 84.329-84.329 84.329zM132.518 556.424h-48.188c-48.188 0-84.329-42.165-84.329-84.329v-48.188c0-48.188 36.141-84.329 84.329-84.329h48.188c48.188 0 84.329 36.141 84.329 84.329v48.188c0 42.165-36.141 84.329-84.329 84.329zM132.518 219.106h-48.188c-48.188 0-84.329-36.141-84.329-84.329v-48.188c0-48.188 36.141-84.329 84.329-84.329h48.188c48.188 0 84.329 36.141 84.329 84.329v48.188c0 48.188-36.141 84.329-84.329 84.329z" />
<glyph unicode="&#xe93c;" glyph-name="clock" horiz-adv-x="964" d="M481.882 929.882c-265.035 0-481.882-216.847-481.882-481.882s216.847-481.882 481.882-481.882 481.882 216.847 481.882 481.882-216.847 481.882-481.882 481.882zM481.882 851.576c222.871 0 403.576-180.706 403.576-403.576s-180.706-403.576-403.576-403.576-403.576 180.706-403.576 403.576 180.706 403.576 403.576 403.576v0zM481.882 767.247c-24.094 0-42.165-18.071-42.165-42.165v-283.106c0-12.047 6.024-24.094 12.047-30.118l180.706-180.706c18.071-18.071 42.165-18.071 54.212 0 18.071 18.071 18.071 42.165 0 54.212l-162.635 180.706v265.035c0 18.071-18.071 36.141-42.165 36.141v0z" />
</font>
</defs>
</svg>
